<?xml version="1.0" standalone="no"?>
<!DOCTYPE svg PUBLIC "-//W3C//DTD SVG 1.1//EN" "http://www.w3.org/Graphics/SVG/1.1/DTD/svg11.dtd" >
<svg xmlns="http://www.w3.org/2000/svg" xmlns:xlink="http://www.w3.org/1999/xlink" version="1.1">
<metadata>
Created by FontForge 20170731 at Tue Dec 15 05:56:00 2020
 By Aleksey,,,

  Created by font-carrier
  
</metadata>
<defs>
<font id="MicrosoftYaHei" horiz-adv-x="2048" >
  <font-face 
    font-family="Microsoft YaHei"
    font-weight="400"
    font-stretch="normal"
    units-per-em="2048"
    panose-1="2 0 5 3 0 0 0 0 0 0"
    ascent="1638"
    descent="-410"
    x-height="20"
    bbox="-25 -328 2063 1755"
    underline-thickness="0"
    underline-position="27"
    unicode-range="U+0078-F815"
  />
<missing-glyph 
 />
    <glyph glyph-name=".notdef" 
 />
    <glyph glyph-name=".null" horiz-adv-x="0" 
 />
    <glyph glyph-name="nonmarkingreturn" horiz-adv-x="682" 
 />
    <glyph glyph-name="x" unicode="x" horiz-adv-x="100" 
d="M20 20h30v-40z" />
    <glyph glyph-name="uniE01F" unicode="&#xe01f;" horiz-adv-x="1201" 
d="M888 1507v-1023h232q3 -23 6 -18l-6 -144h-232v-364l-113 4l-77 -4q2 219 4 70l-4 294h-723v153q193 217 388 500t322 532h203zM195 484h503v738q-104 -187 -223 -362.5t-280 -375.5z" />
    <glyph glyph-name="uniE067" unicode="&#xe067;" 
d="M1581 1440h-764v144h1046l3 -4l-3 -142q-317 -192 -599 -361l-223 -135q219 6 843 5l69 -5l-38 -758q-10 -232 -84 -316q-70 -88 -254 -86q-84 0 -244 6q-14 86 -36 170q128 -18 274 -22q170 -6 188 180q18 234 38 682h-232q-96 -660 -632 -1056q-56 78 -104 132
q508 364 586 924h-226q-106 -468 -534 -784q-44 66 -96 128q382 280 480 656h-270v152q278 171 227 141zM39 446q214 328 300 712h-282q6 136 4 119l-4 17h308v392l126 6l18 -6v-392l289 6l-5 -6v-136h-284q5 -122 4 -284l-4 -54l86 72q134 -146 254 -282l-118 -102
q-106 140 -222 276v-1038h-144v1108q-108 -368 -260 -584q-28 86 -66 176z" />
    <glyph glyph-name="uniE097" unicode="&#xe097;" 
d="M69 16h868v616l-372 4l-310 -4q6 125 4 108l-4 52l393 5l289 -5q2 400 6 321l-6 251q-371 2 -433 5l-325 -5q4 98 5 63l-5 97h1696v-160q-14 3 -729 6l-33 -6q2 -268 6 -288l-6 -284h698v-160q-114 6 -344 4l-354 -4v-616h872v-160l-804 2l-1112 -2v160z" />
    <glyph glyph-name="uniE13A" unicode="&#xe13a;" 
d="M205 1582h1588l4 -727l-4 -227q-24 6 -127 5l-25 -5l6 70l-6 14h-1284v-84h-152v954zM79 472h722q11 78 20 174h162q-11 -99 -21 -174h921q-20 -258 -38 -406q-38 -324 -340 -324q-192 0 -394 8q-8 68 -30 176q220 -24 401 -24t203 178q16 114 28 252h-774
q-73 -443 -800 -632l-104 144q660 153 743 488h-699q2 136 2 75zM357 848h566v232q-316 5 -116 3l-450 -3v-232zM1075 848h566v232q-50 4 -232 6l-334 -6l3 -182zM1641 1446h-566v-230h566v230zM357 1216h566v230h-566v-230z" />
    <glyph glyph-name="uniE1D2" unicode="&#xe1d2;" horiz-adv-x="1201" 
d="M872 1162q0 125 -79 196.5t-215 71.5q-96 0 -194 -49t-183 -140v190q76 79 172.5 121t226.5 42q210 0 338 -112.5t128 -304.5q0 -171 -78.5 -296t-268.5 -256q-194 -134 -259.5 -192t-91.5 -111t-26 -129h770v-174l-38 2l-936 -2q3 36 6 44l-6 33q0 134 36.5 227.5
t120.5 182t262 212.5q182 128 248.5 224.5t66.5 219.5z" />
    <glyph glyph-name="uniE23A" unicode="&#xe23a;" 
d="M177 32h746v862q-823 2 -752 6l-136 -6v166q178 6 182 3l706 -3v628l11 4l169 -4v-628l450 4l436 -4q4 -86 4 -142l-4 -24h-886v-862h746v-160h-1672v160z" />
    <glyph glyph-name="uniE306" unicode="&#xe306;" 
d="M272 1583h1460v-654h-152v84h-1156v-84h-152v654zM1986 -137q-58 -80 -92 -154q-648 88 -924 492q-180 -366 -862 -508q-22 60 -88 150q670 122 828 430h-804l3 111l-3 29l809 2l43 -2q22 102 28 236h-758l5 117l-5 23q954 3 1536 2l134 -2v-140h-762q-8 -136 -24 -236
h910v-140l-814 5l-66 -5q300 -374 906 -410zM1580 1447h-1156l2 -148l-2 -150h1156l4 246z" />
    <glyph glyph-name="uniE33C" unicode="&#xe33c;" 
d="M86 51h928v510q-656 6 -330 6l-378 -6v154q98 5 348 2l360 -2q4 153 4 438l-4 24h-528q-133 -240 -306 -434q-42 66 -108 140q282 316 446 772l164 -44q-53 -146 -117 -280h449v424h172q3 -214 2 -12l-2 -412q192 3 155 2l609 -2v-154l-545 2l-219 -2v-462h708v-154
q-559 4 -157 4l-551 -4q5 -19 5 -248l-5 -262l746 3l126 -3q3 1 5 -23l-5 -127h-1972v150z" />
    <glyph glyph-name="uniE347" unicode="&#xe347;" 
d="M741 1402h299q49 140 95 286l152 -42q-44 -125 -87 -244h765v-142l-377 3l-440 -3q-91 -249 -179 -474h332v344l151 4l1 -4q2 -111 3 -224l-3 -120h498q6 -97 2 -47l-2 -97q-409 3 -66 2l-432 -2v-646q0 -234 -236 -234q-134 0 -256 2q-12 82 -30 166q140 -16 244 -16
q126 0 126 126v602h-506q6 48 6 17l-6 129q103 226 194 472h-248q2 74 4 121zM695 464q58 -352 -188 -398q-78 -14 -202 -2q-16 82 -44 168q98 -24 184 -16q138 12 90 254q-28 162 -180 360q90 296 164 582h-260v-1678l-13 4l-137 -4v1818h576l2 -29l-2 -111
q-136 -448 -172 -556q164 -216 182 -392zM1573 394l126 94q188 -256 306 -454l-130 -88q-172 290 -302 448zM997 472l130 -80q-168 -248 -320 -440l-134 90q166 184 324 430z" />
    <glyph glyph-name="uniE386" unicode="&#xe386;" horiz-adv-x="1126" 
d="M1008 -25h-833l5 1502l-5 47q617 4 189 6l609 -6l2 -9l-2 -169q-512 5 -420 4l-178 -4v-496h554v-177h-554l5 -192l-5 -329h633v-177z" />
    <glyph glyph-name="uniE3B3" unicode="&#xe3b3;" 
d="M2004 251q-52 -52 -136 -140q-484 373 -772 956v-792h458v-140q-335 4 -78 4l-380 -4v-410q-107 5 -131 5l-25 -5v410h-474l3 90l-3 50h474v792q-255 -508 -782 -980q-78 74 -132 120q569 467 851 988h-807l6 122l-6 26l849 4l21 -4v360h156q5 -22 3 -167l-3 -193l359 4
l511 -4v-148h-813q318 -598 851 -944z" />
    <glyph glyph-name="uniE3EB" unicode="&#xe3eb;" 
d="M1703 464v110l-166 5l-208 -5v-128h-144l2 31l-2 97h-370l5 -111l-5 -39l-13 3l-131 -3v784h514l4 122l-4 10l-270 3l-342 -3l5 84l-5 44l572 6l40 -6l6 145l-6 87h144v-232h640l3 -100l-3 -28h-640v-132l144 4l374 -4v-744h-144zM31 1136h202q6 265 5 38l-5 526h148
v-564h192v-144h-192v-1260h-148v1260l-62 5l-140 -5v144zM521 340h1026l6 78l-6 38l116 6l32 -6v-116l209 3l113 -3v-128h-322v-230q0 -226 -240 -226q-114 0 -282 4q-8 64 -24 148q162 -14 288 -14q110 0 110 108v210h-1026q6 119 3 33zM1329 694h374v136h-374l2 -9z
M815 694h370v136h-370v-136zM1703 1084h-374l2 -43l-2 -91l111 5l263 -5l3 13zM815 950h370v134l-246 2l-124 -2v-134zM757 102l90 100q144 -94 272 -196l-96 -106q-118 100 -266 202zM1729 1472q-120 66 -252 126l62 102q146 -62 252 -116z" />
    <glyph glyph-name="uniE3EC" unicode="&#xe3ec;" horiz-adv-x="2001" 
d="M1579 -22v1026q0 127 15 305h-5q-26 -112 -46 -156l-511 -1175h-111l-510 1166q-18 40 -46 165h-6q10 -108 10 -314v-1017q-119 2 -118 3l-73 -3l5 1397l-5 152q69 5 37 2l234 -2l457 -1062q52 -122 69 -190h7q52 143 73 194l465 1058h258l3 -1406l-3 -143h-199z" />
    <glyph glyph-name="uniE569" unicode="&#xe569;" 
d="M771 1418v144h964q6 -3 5 -57l-5 -89q-130 -187 -306 -347q301 -155 548 -305l-102 -136q-256 176 -559 344q-238 -195 -607 -340q-40 72 -96 138q582 190 938 648h-780zM643 -72h570v488l-293 3l-141 -3v144h1016v-144l-248 4l-176 -4q3 -373 5 -475l-5 -13l543 6l17 -6
q3 -119 3 -45l-3 -99q-426 5 -939 5l-349 -5q2 134 6 119zM239 464q196 26 430 64q-12 -84 -18 -148q-246 -34 -596 -94l-36 148q155 160 316 403q-194 -12 -300 -21l-38 136q218 290 404 714l152 -60q-186 -358 -376 -642l243 6q78 127 157 274l148 -74
q-258 -416 -486 -706zM-5 0q416 84 702 156q-6 -82 -6 -148q-272 -56 -650 -156z" />
    <glyph glyph-name="uniE595" unicode="&#xe595;" 
d="M518 325q265 -118 572 -263l452 391h-1120v148l61 152l36 96h-477q4 25 5 137l-5 15q541 6 382 5l155 -5q27 63 99 241l9 33q-168 3 -466 4l-57 -4q6 61 4 92l-4 60h583q65 155 35 81l70 185q39 4 29 5l153 -5l-12 -37l-93 -229h947q3 -45 4 -123l-4 -29h-1007l-96 -252
l-12 -22q1190 6 579 2l664 -2v-152l-182 2l-1121 -2l-53 -141l-44 -105h1166q3 -61 5 -37l-5 -119q-231 -196 -490 -419l-42 -36q134 -64 276 -133l-98 -152q-502 264 -982 484z" />
    <glyph glyph-name="uniE5DF" unicode="&#xe5df;" 
d="M1889 -104l-110 -150q-331 193 -704 382q-297 -227 -938 -396q-36 70 -94 160q583 129 868 318q-280 139 -582 276q136 296 242 578h-510v148h563q90 254 155 498l178 -36q-80 -250 -155 -462h1193v-148h-417q-87 -527 -376 -822q352 -170 687 -346zM1411 1064h-663
q-110 -296 -211 -512q258 -116 508 -235q291 277 366 747z" />
    <glyph glyph-name="uniE676" unicode="&#xe676;" horiz-adv-x="1201" 
d="M143 259q159 -123 359 -123q160 0 253.5 78.5t93.5 210.5q0 294 -421 294h-129v162h123q373 0 373 276q0 255 -285 255q-163 0 -307 -110v185q152 88 355 88q198 0 318 -103.5t120 -268.5q0 -304 -310 -391v-4q168 -18 265.5 -118.5t97.5 -250.5q0 -209 -150.5 -337
t-400.5 -128q-220 0 -355 82v203z" />
    <glyph glyph-name="uniE801" unicode="&#xe801;" 
d="M20 425q210 358 296 710h-274v138l240 3l40 -3l3 356l-3 58h146l3 -151l-3 -263h232q4 -88 2 -136l-2 -2h-232v-186l70 55v-1q142 -180 196 -264l-108 -80q-62 94 -158 232v-1176q-115 5 -51 5l-95 -5l5 674l-5 394q-104 -338 -238 -534q-26 86 -64 176zM1062 765
q108 -284 266 -466q148 182 244 484l154 -56q-132 -346 -286 -538q226 -188 572 -284q-48 -58 -102 -150q-360 126 -578 318q-230 -220 -608 -366q-40 64 -96 144q370 130 592 334q-170 192 -286 518zM768 1381h540q-42 114 -114 262l134 58q78 -138 132 -262l-130 -58h642
l4 -54l-4 -86q-169 6 -212 4l-992 -4v140zM1062 1197l138 -68q-176 -304 -368 -558q-60 42 -126 84q208 264 356 542zM1458 1099l108 90q218 -232 414 -476l-122 -104q-174 242 -400 490z" />
    <glyph glyph-name="uniE8DE" unicode="&#xe8de;" 
d="M714 841h238l4 71l-4 773h154v-844h880l4 -137l-4 -7h-559q155 -489 587 -744q-78 -76 -130 -140q-456 339 -601 884h-177v-686q106 52 294 160q14 -92 32 -158q-134 -68 -328 -184q-74 -52 -116 -94l-108 138q72 72 72 166v658l-99 6l-139 -6v144zM80 1589h640
q4 -100 4 -244l-4 -428h-148l3 47l-3 15l-180 4l-124 -4l-32 -346q40 3 155 5l315 -5q-24 -398 -38 -584q-24 -282 -276 -282q-82 0 -264 6q-12 76 -34 170q174 -16 270 -16q132 0 150 132q22 156 34 438h-474l37 355l21 263h440v338l-121 3l-371 -3q5 16 4 110zM1158 1079
q342 202 640 486l118 -112q-308 -282 -664 -502z" />
    <glyph glyph-name="uniE91E" unicode="&#xe91e;" 
d="M564 859h582q4 9 3 99l-3 129h148v-228h582q6 -70 2 -906l-2 -178l-98 5l-50 -5l6 99l-6 17q-952 2 -634 2l-382 -2v-116h-148q6 676 4 1069zM284 1639h1616v-622q-34 6 -20 2l-128 -2q4 24 2 35l-2 75l-1069 3l-247 -3q5 -42 2 -121l-2 -229q4 -660 -258 -998
q-54 66 -116 130q222 296 222 836v894zM1752 1499h-1316v-232h1316q3 204 5 221zM1294 27h434l6 218l-6 62h-434v-280zM1728 723h-434v-280l353 3l81 -3q2 107 2 168zM712 27h434v280h-434l4 -190zM712 443h434q6 12 3 131l-3 149h-434v-280z" />
    <glyph glyph-name="uniE980" unicode="&#xe980;" 
d="M35 290q228 306 344 682h-316q5 110 3 32l-3 110h328v294q-154 -16 -290 -28q-14 74 -40 148q388 28 770 88l52 -148q-180 -24 -342 -42v-312q147 5 202 2l116 -2v-142l-111 5l-207 -5v-226l88 80q144 -124 266 -242l-112 -114q-128 144 -242 250v-980h-150l4 86l-4 816
q-118 -308 -280 -522q-34 82 -76 170zM757 396l784 70l3 558l-3 678q37 6 158 6l-4 -6v-1222q119 14 70 10l246 20l12 -144l-328 -30l3 -377l-3 -219l-59 2l-95 -2q3 119 4 126l-4 456l-768 -70zM995 1390l92 100q222 -170 360 -298l-104 -118q-142 146 -348 316zM877 910
l96 102q228 -178 344 -284l-104 -122q-94 98 -336 304z" />
    <glyph glyph-name="uniEA66" unicode="&#xea66;" horiz-adv-x="1201" 
d="M1087 1420q-244 -426 -383.5 -788.5t-172.5 -639.5h-204q37 273 175 623t369 753h-768v173h984v-121z" />
    <glyph glyph-name="uniEB62" unicode="&#xeb62;" horiz-adv-x="1285" 
d="M184 -16v1549l54 6l401 -6q204 0 326 -97.5t122 -258.5q0 -128 -72.5 -226t-199.5 -139v-4q158 -18 252.5 -119.5t94.5 -257.5q0 -200 -143.5 -323.5t-367.5 -123.5h-467zM384 1358v-485q20 2 161 6l21 -6q145 0 227.5 70.5t82.5 195.5q0 219 -292 219h-200zM384 699
v-540h240q157 0 242.5 72.5t85.5 201.5q0 266 -361 266h-207z" />
    <glyph glyph-name="uniEBB3" unicode="&#xebb3;" 
d="M85 1570h1944l6 -123l-6 -41q-867 3 -667 5l-305 -5v-436q22 29 41 55l51 73q458 -270 768 -486l-118 -162q-310 238 -742 502v-1174h-182q6 178 5 1214l-5 414q-4 5 -342 2l-448 -2v164z" />
    <glyph glyph-name="uniEC2B" unicode="&#xec2b;" 
d="M391 896q0 -508 -44 -698q-48 -232 -200 -446q-58 74 -114 134q126 192 166 386q32 168 32 586v776h1698v-1596q0 -258 -248 -262q-142 -2 -316 4q-8 60 -32 162q194 -12 298 -12q142 0 142 134v1426h-1382v-594zM651 622h856q2 -195 6 -406l-6 -134h-704l5 -76l-5 -52
h-152l4 412zM487 924h514v202q-272 6 -235 4l-187 -4q2 121 4 108l-4 28q173 3 194 5l228 -5l4 107l-4 69q60 3 9 2l147 -2q2 -139 6 -107l-6 -69l266 3l156 -3l5 -18l-5 -118h-422v-202h516l6 -96l-6 -40h-1186q6 133 3 98zM1355 218v268l-436 6l-116 -6v-268h552z" />
    <glyph glyph-name="uniECB4" unicode="&#xecb4;" 
d="M32 571q230 390 328 844h-262l5 96l-5 36h710v-132q-237 5 -222 4l-80 -4q-54 -232 -128 -436h380l3 -368l-3 -588h-378v-128h-136q2 35 4 739l-4 25q-52 -104 -110 -198q-52 60 -102 110zM956 1217h322l54 250l-248 2l-224 -2v140h1158v-140h-524l-62 -250h492v-1042
h-146q3 514 4 410l-4 492h-676v-902h-146l3 216zM1364 947h146v-306q0 -288 -68 -456l74 76q316 -208 532 -370l-104 -138q-276 224 -516 396q-134 -266 -540 -426q-48 74 -94 136q390 148 500 368q70 140 70 418v302zM622 847h-242v-692q197 6 118 6l124 -6l6 610z" />
    <glyph glyph-name="uniED12" unicode="&#xed12;" horiz-adv-x="1201" 
d="M154 179q128 -74 276 -74q208 0 322.5 164t114.5 466q-2 -2 -4 0q-102 -194 -343 -194q-195 0 -323 134t-128 348q0 228 140 374.5t363 146.5q231 0 361 -181.5t130 -528.5q0 -429 -168 -660t-465 -231q-163 0 -276 53v183zM267 1048q0 -156 80 -247.5t221 -91.5
q122 0 205 83.5t83 202.5q0 167 -82.5 276.5t-217.5 109.5q-125 0 -207 -95t-82 -238z" />
    <glyph glyph-name="uniED34" unicode="&#xed34;" 
d="M177 1280h770v436l140 2l32 -2l5 -20l-5 -416h778v-912h-164v108h-614v-744h-172q2 563 2 520l-2 224h-606v-108l-21 6l-143 -6v912zM1733 1132h-614v-508h614v508zM341 624h606l5 132l-5 376h-606v-508z" />
    <glyph glyph-name="uniEEBF" unicode="&#xeebf;" 
d="M1044 1225q-74 -366 -284 -754q228 -310 374 -520l-138 -106q-166 242 -328 472q-216 -336 -518 -572q-40 56 -114 134q318 238 532 580q-216 302 -426 580l124 90q216 -284 390 -518q138 256 232 614h-844v146l73 5l479 -5q-70 138 -146 262l138 70q100 -160 156 -276
l-110 -56l438 2l112 -2v-146l-38 2zM1758 1663h158v-1638q0 -260 -238 -262q-106 -2 -320 4q-12 82 -30 178q162 -20 276 -20q154 -2 154 150v1588zM1292 1463h152l6 -229l-6 -1035l-60 4l-92 -4q2 1033 2 830z" />
    <glyph glyph-name="uniEF32" unicode="&#xef32;" horiz-adv-x="1201" 
d="M84 418q0 134 80 247t206 161q-101 57 -160 146t-59 193q0 110 56.5 201t157 143t222 52t222.5 -51.5t157 -142.5t56 -202q0 -102 -57.5 -191.5t-159.5 -147.5q126 -49 205 -162t79 -245.5t-63 -237t-179 -162.5t-260.5 -58t-259.5 58t-179 163t-64 236zM276 427
q0 -138 85 -221t226 -83q138 0 225.5 84.5t87.5 219.5q0 128 -88.5 215.5t-224 87.5t-223.5 -85.5t-88 -217.5zM332 1149q0 -104 74 -178.5t180 -74.5t182.5 75t76.5 179t-73.5 177t-184 73t-183 -71.5t-72.5 -179.5z" />
    <glyph glyph-name="uniEF52" unicode="&#xef52;" 
d="M365 1238h1298q3 -1 2 -98l-2 -390l-33 4l-119 -4v64q-631 3 -31 5l-963 -5v-62h-152v486zM293 -268h-152l2 239l-2 699l1724 6l24 -6q4 -197 4 -346l-4 -334q0 -246 -232 -246q-130 0 -292 4q-12 68 -32 158q184 -14 282 -14q122 0 122 122v528q-1367 2 -159 4l-1285 -4
v-810zM563 410h904l3 -277l-3 -141h-760v-86h-144v504zM23 1502h916q-44 85 -84 150l150 60q57 -99 111 -210h875v-132l-886 2l-1082 -2q6 42 6 114zM1511 1114h-994v-176q318 4 581 2l413 -2l6 27zM1323 116v170h-616v-170q330 6 560 6z" />
    <glyph glyph-name="uniF208" unicode="&#xf208;" 
d="M963 1656l146 78q86 -110 164 -238l-97 -56l733 4l78 -4l3 -24l-3 -128h-1558v-490q0 -708 -292 -1058q-48 66 -116 138q240 268 240 916v646h846q-65 110 -144 216zM417 10h925q156 399 331 1092l174 -48q-187 -660 -332 -1044h494l2 -41l-2 -111q-58 6 -152 2l-1440 -2
l5 12zM525 992l152 52q124 -364 240 -816l-170 -52q-92 396 -222 816zM1007 1092l154 44q104 -360 184 -806l-176 -46q-58 396 -162 808z" />
    <glyph glyph-name="uniF2E0" unicode="&#xf2e0;" 
d="M45 352h924v86l378 192h-954q3 61 5 63l-5 73q522 3 502 2l686 -2q4 -121 2 -139l-2 -21l-460 -228v-26h844v-140h-844v-260q0 -226 -238 -226q-118 0 -306 4q-6 68 -24 170q178 -18 300 -18q116 0 116 104v226h-924v140zM127 1440h806l2 77l-2 161q97 2 39 6l105 -6
l5 -128l-5 -110h806l4 -111l-4 -29h-708q424 -312 828 -402q-52 -82 -92 -148q-514 172 -834 484v-396h-144v404q-280 -292 -832 -514q-24 60 -94 142q520 174 810 430h-690v140z" />
    <glyph glyph-name="uniF336" unicode="&#xf336;" 
d="M40 -105q156 262 168 798h148q-4 -172 -22 -320q86 -202 250 -306v772h-504q5 59 2 13l-2 127q101 4 198 3l254 -3v312h-368v140h368v266h152l4 -115l-4 -151q161 2 159 2l185 -2v-140h-344q4 -293 5 -160l-5 -152h426v-140h-378v-322h344l5 -116l-5 -24h-344
q3 -134 6 -119l-6 -259q118 -40 266 -42q510 -6 1036 8q-36 -90 -56 -162q-512 -2 -1014 2q-492 20 -666 356q-56 -258 -166 -432q-40 94 -92 166zM1070 1485l120 84q186 -298 364 -588q156 300 270 632l150 -52q-142 -396 -324 -736q184 -304 360 -602l-136 -100
q-160 278 -316 540q-180 -306 -396 -562q-62 66 -124 106q242 288 428 612q-204 346 -396 666z" />
    <glyph glyph-name="uniF339" unicode="&#xf339;" horiz-adv-x="1201" 
d="M1019 1351q-121 62 -253 62q-201 0 -323 -175t-124 -478h5q110 213 351 213q201 0 321 -131t120 -348q0 -227 -138.5 -373t-353.5 -146q-236 0 -370.5 184.5t-134.5 523.5q0 410 176.5 651.5t464.5 241.5q165 0 259 -45v-180zM331 508q0 -153 81.5 -262t216.5 -109
q128 0 208 94t80 242q0 160 -75.5 249t-214.5 89q-132 0 -214 -90t-82 -213z" />
    <glyph glyph-name="uniF341" unicode="&#xf341;" 
d="M780 805v132h514l2 6l-2 300h-522v146h522v322q71 5 103 4l57 -4v-322q130 5 544 4v-150l2 6l-546 -6l3 -124l-3 -182l114 5l312 -5l4 -111l-4 -9q-141 -400 -401 -648q225 -177 557 -270q-76 -88 -128 -154q-325 132 -551 321q-263 -198 -615 -337q-42 64 -106 142
q357 116 610 300q-222 242 -333 634h-133zM38 657q151 43 292 85v431q-157 4 -215 5l-51 -5v138l228 6l38 -6v388l48 5l106 -5v-388l173 6l61 -6v-138l-57 3l-177 -3q5 -141 2 -299l-2 -84q115 37 224 73q0 -96 4 -156l-228 -73l4 -136l-4 -509q0 -212 -200 -214
q-80 -2 -192 0q-12 84 -26 170q118 -12 178 -12q86 0 86 90v560q-135 -45 -272 -92zM1706 805h-639q90 -316 300 -534q236 224 339 534z" />
    <glyph glyph-name="uniF431" unicode="&#xf431;" 
d="M300 1309l-46 -550l119 5l83 -5l52 674q-62 5 -86 3l-368 -3l3 17l-3 119h606l-17 -295l-45 -515q119 4 26 4l100 -4q-14 -422 -26 -694q-6 -304 -264 -304q-108 0 -254 6q-10 74 -26 158q144 -18 256 -18q140 0 148 170q12 220 20 546h-480l64 686h138zM740 -41h722
q144 356 256 744l152 -48q-118 -358 -250 -696h352l6 -63l-6 -75h-1232q5 25 2 84zM1466 1681l-38 -64q242 -430 600 -626q-64 -80 -106 -140q-352 260 -574 626q-204 -362 -570 -650q-36 52 -100 126q398 276 610 728h178zM944 945h824v-138h-824v138zM1186 689l142 38
q84 -300 138 -524l-146 -42q-58 276 -134 528zM842 599l140 44q98 -284 164 -506l-148 -50q-66 256 -156 512zM4 323q232 46 510 112q-2 -80 2 -142q-228 -48 -482 -118z" />
    <glyph glyph-name="uniF450" unicode="&#xf450;" 
d="M74 931h784q42 208 50 464h-682q6 139 2 3l-2 153l1405 3l219 -3q4 -43 3 -37l-3 -119l-664 2l-110 -2q-14 -256 -52 -464h978v-156q-44 2 -453 3l-559 -3q-152 -676 -836 -1048q-44 68 -108 142q596 298 776 906h-748v156zM1098 631h162l4 -35l-4 -491q0 -158 146 -158
h274q136 0 154 118q16 114 24 296q76 -28 168 -58q-20 -198 -36 -298q-26 -200 -284 -200h-346q-262 0 -262 276v550z" />
    <glyph glyph-name="uniF4A7" unicode="&#xf4a7;" 
d="M251 846h660v174h-892l4 14l-4 122l302 2l240 -2v192h-480l2 75l-2 61h480q3 73 3 142l-3 46h152v-188q13 4 464 2l88 -2v188h152l5 -116l-5 -72l165 2l315 -2v-136h-480q3 -48 4 -113l-4 -79l83 6l463 -6v-136l-347 6l-553 -6l3 -152l-3 -22l294 3l368 -3v-828h-150
q6 64 3 44l-3 16h-1174v-60q-13 4 -12 4l-138 -4v828zM1161 -80l58 120q424 -112 714 -212l-64 -136q-374 126 -708 228zM713 1156h552v192h-552v-192zM707 40l88 -126q-348 -150 -686 -242q-28 60 -70 136q360 88 668 232zM1575 714h-512q2 -11 5 -98l-5 -90l94 6l418 -6
v188zM1063 210h512l2 47l-2 141h-512v-188zM401 526h510q5 180 2 33l-2 155h-510v-188zM401 210h510v188h-510q3 -14 5 -98z" />
    <glyph glyph-name="uniF56D" unicode="&#xf56d;" horiz-adv-x="1441" 
d="M1448 31h-221l-158 424h-645l-137 -400l-12 -24q-166 6 -189 4l-32 -4l590 1549h214zM1007 630l-234 644q-11 31 -24 108h-5q-11 -70 -25 -108l-232 -644h520z" />
    <glyph glyph-name="uniF5DF" unicode="&#xf5df;" 
d="M22 -115q825 367 890 1102h-854v156q314 4 273 3l588 -3q5 269 5 542h174q0 -269 -5 -542h887q3 -7 4 -42l-4 -114l-345 3l-545 -3q142 -799 932 -1054q-102 -98 -152 -162q-651 262 -851 933q-156 -607 -873 -973q-40 54 -124 154z" />
    <glyph glyph-name="uniF6DF" unicode="&#xf6df;" horiz-adv-x="1201" 
d="M118 771q0 410 136 620.5t394 210.5q492 0 492 -794q0 -392 -138.5 -599.5t-388.5 -207.5q-236 0 -365.5 197t-129.5 573zM318 780q0 -617 313 -617q308 0 308 627q0 649 -302 649q-319 0 -319 -659z" />
    <glyph glyph-name="uniF72F" unicode="&#xf72f;" 
d="M1502 1615h164v-360q0 -553 -142 -878q248 -256 468 -504l-138 -126q-205 254 -409 483q-231 -351 -695 -549q-46 62 -108 138q504 232 678 538q186 300 182 902v356zM882 507q6 -130 16 -190q-480 -302 -598 -380q-66 -46 -126 -100l-114 158q94 84 92 202v1390l160 2
l4 -2v-1430q220 132 566 350zM800 1661q134 -212 298 -508l-156 -88q-156 308 -284 520z" />
    <glyph glyph-name="uniF78C" unicode="&#xf78c;" horiz-adv-x="1201" 
d="M1011 435q0 -227 -150.5 -366t-404.5 -139q-218 0 -325 65v200q157 -102 319.5 -102t262 89.5t99.5 237.5t-103.5 230.5t-292.5 82.5q-146 0 -263 -13l57 786l565 6l159 -6l4 -28l-4 -144l-504 6l-55 -6l-32 -439q47 8 6 3l135 3q246 0 386.5 -122.5t140.5 -343.5z" />
    <glyph glyph-name="uniF815" unicode="&#xf815;" horiz-adv-x="1201" 
d="M608 38v1325q-46 -46 -155.5 -103t-202.5 -80v192q123 34 263 108.5t215 140.5h74l5 -1387l-5 -196l-63 5z" />
  </font>
</defs>
</svg>
